WK綜合論壇, WK综合论坛

查看:388275 回復:33 發表於 2016-10-15 09:03:03
累計簽到︰1943 天
連續簽到︰2 天
發表於 2016-10-12 18:58:49 | 顯示全部樓層 |閱讀模式
VIP精品區,資源無限好賺金任務區,輕松賺金幣
加入VIP,享受高級特權宣傳賺金又升級,超級棒

神奇隊長 Captain.Fantastic, 2016.[MKV / 3.48GB]   [複製鏈接]

影視分享
分類: 電影
題材: 愛情 劇情 喜劇 
地區: 美國 
語言: 英语 
格式: MKV 
年份: 2016
資源: BT资源
9 q9 i5 y5 D: {4 D; D# J0 G
6 K; _$ D9 e8 \$ A2 M/ i) a
◎译  名 神奇队长4 _6 ^  u- n( N  x" _4 x
◎片  名 Captain Fantastic" p( `$ Y1 [- l/ S; u
◎年  代 2016
3 E9 k/ U. G4 E3 P0 r3 W◎国  家 美国# X' d4 y: W7 [: e8 T. ~
◎类  别 剧情/喜剧/爱情' U- Q) A6 W' g; H! l# E
◎语  言 英语0 M* F+ w$ N5 t/ K7 E# [" @
◎上映日期 2016-01-23(圣丹斯电影节)/2016-07-08(美国)# C* g+ d9 O$ s$ }) B+ j4 I- ^4 P
◎IMDb评分  8.1/10 from 9,480 users
/ ]% B0 L; k! u! H- M* u◎IMDb链接  http://www.imdb.com/title/tt3553976/) |' z+ T6 n3 y& C+ R! ?
◎豆瓣评分 7.9/10 from 243 users6 a; V* P( Y* P, {2 I7 w
◎豆瓣链接 https://movie.douban.com/subject/25834735/* T8 _: C7 W; q1 v; J2 ]% H
◎片  长 118分钟/ i9 ~! L7 J' O# y7 U! N
◎导  演 马特·罗斯 Matt Ross
6 e  j% X, G% `- o6 N◎主  演 维果·莫腾森 / 乔治·麦凯 / 安娜丽丝·巴索 / 弗兰克·兰格拉 / 史蒂夫·茨恩 / 凯瑟琳·哈恩 / 米西·派勒 / 艾琳·莫里亚蒂 / 萨曼莎·伊斯莱尔3 X% @  |3 M. j$ m# @
◎简  介0 @3 I7 ?. e1 w3 N0 ]$ E- J
  在太平洋西北部的森林深处,与世隔绝,一位慈爱的父亲全心全意地试图将自己六个年幼的孩子培养成出色的成年人。但当灾难降临,他们被迫离开了自己创建的天堂,开始走向外面的世界。这不仅挑战了他对“家长“这个角色的理解,也让孩子们开始怀疑父亲所教给他们的一切。
/ D: |3 e# \3 bVideo: g& {7 K; f/ ?$ a& ]. ^
ID                                       : 13 f, I+ J' ~- z: M/ _
Format                                   : AVC6 ]7 [, a) {. r2 ]% x- b& F: |
Format/Info                              : Advanced VideoCodec; F8 T  e5 x. m5 ^7 T  k
Format profile                           : [email protected]
9 c4 V# n: M( v* h$ @( qFormat settings, CABAC                   : Yes; S1 v9 w, t* L0 r' x
Format settings, ReFrames                : 5 frames
7 ~' k5 h! @; ^3 nCodec ID                                 :V_MPEG4/ISO/AVC, H8 F. Z* c. V, M2 `7 A
Duration                                 : 1h 59mn
9 ?; T$ M1 P- y7 GBit rate                                 : 4 424 Kbps0 N' l/ k( Y' D- x' P& d: z1 M* o( e
Width                                    : 1 916 pixels
3 Q6 h) B- n# {" P3 j  p% G! eHeight                                   : 792 pixels
7 R- r9 s# [* f6 ]Display aspect ratio                     : 2.40:19 p3 C! b: _6 S- L! v  L. G1 ?0 L) o
Frame rate mode                          : Constant0 J# H3 r6 L( y% n& T. ^
Frame rate                               : 23.976 fps" h" [$ `  ~. G
Color space                              : YUV  ^* ?; u- K+ W
Chroma subsampling                       : 4:2:0$ B4 Y; e% ]& k0 c% [
Bit depth                                : 8 bits
  N( F$ q, K+ P. _) sScan type                                : Progressive9 u  l* L* ?9 h( O
Bits/(Pixel*Frame)                       : 0.122+ h% {+ S% I0 Q4 p3 z6 ~
Stream size                              : 3.69 GiB (90%)% o, b6 V$ O3 k3 P5 o: j' Q
Title                                    :Captain.Fantastic.2016.1080p.WEB-DL.DD5.1.H264-FGT
, z, a; H3 }& R7 FLanguage                                 : English
! _4 n$ J3 E/ D$ a6 `$ ?4 wDefault                                  : Yes* w2 s& ^: w, j. b  e. Y- A/ f/ W/ _
Forced                                   : No
+ o) O* Y$ f+ W! AColor range                              : Limited0 K% Z; {" p( Y! Q3 L5 X
Color primaries                          : BT.709
0 k/ A; e+ s; @7 j6 kTransfer characteristics                 : BT.709
) B, B  ~% @6 E# \' \$ eMatrix coefficients                      : BT.709
3 |' j5 h% D4 O- f, P* YAudio
* U8 H7 E* E+ V( QID                                       : 2
6 d8 G" d; I6 x' FFormat                                   : AC-3
" A5 m- x' Q. j; y/ o. wFormat/Info                              : Audio Coding 3; x0 O# _- h2 W* ]' I5 Q" v
Mode extension                           : CM (complete main)
$ o4 p# r9 v  ?1 p, ?Format settings, Endianness              : Big, v9 R* h, J3 ?! t
Codec ID                                 : A_AC3
. ?4 q8 Z1 f( E4 p0 w9 V: KDuration                                 : 1h 59mn
. K& S2 c% T3 w5 CBit rate mode                            : Constant8 T5 V2 c8 w( e) n8 l
Bit rate                                 : 384 Kbps( a4 [% [' x: k% Q" j- a1 L
Channel(s)                               : 6 channels
  q. H1 P# `* D) SChannel positions                        : Front: L C R, Side: LR, LFE( l1 W( Z& ]: n1 c$ ?
Sampling rate                            : 48.0 KHz
# A' N5 v2 _- P5 _2 }6 @Frame rate                               : 31.250 fps(1536 spf)
" v# X0 D$ U$ k' s9 W4 kCompression mode                         : Lossy- L& r" G& j  D1 O
Stream size                              : 328 MiB (8%)
' d6 X$ j& j7 Y$ m0 YTitle                                    :Captain.Fantastic.2016.1080p.WEB-DL.DD5.1.H264-FGT
+ t$ d1 r$ n4 {5 g$ f& }. @/ rLanguage                                 : English8 x5 _% h- S4 K( G1 U+ W  f
Default                                  : Yes5 e; y! P: O1 s
Forced                                   : No
& R% O4 H( V' ]( `. t" B7 ~Text/ U7 E4 G* J! v( E5 u5 ]4 S. z
ID                                       : 3& D; S" N" v+ C* W
Format                                   : UTF-83 g6 y# Y% v* M2 F# n
Codec ID                                 : S_TEXT/UTF8
! _! _! O( h, L: U( ?, _Codec ID/Info                            : UTF-8 Plain Text
) H  b0 `- ~- p, k& fLanguage                                 : English
! m- J3 P4 d; ~: D9 qDefault                                  : Yes/ o4 K7 K3 b! L% u
Forced                                   : No' N, _- e2 H) O- z9 }7 |
Menu
: H7 \! P: P9 V" u00:00:00.000                             : en:1
# m. S3 f4 ]6 Z% M  B3 O00:05:15.000                             : en:2
  u' y2 l- b0 L0 {00:11:13.000                             : en:3
0 @7 G9 J. {+ K; u, Y7 V$ B8 V- \00:17:35.000                             : en:4
2 N3 o( |4 n0 P* X: k00:25:21.000                             : en:5
! A; J7 @% E! q& D00:31:38.000                             : en:6
3 Q* O# ^  u5 ^% V* c9 j, j  U00:37:42.000                             : en:7
8 m9 z. H) D) z$ E/ Z00:40:26.000                             : en:8  M5 p0 D+ u; Y* j% h+ [# W
00:46:11.000                             : en:9
9 y3 x5 f$ W% J00:54:04.000                             : en:10
- G( k- P. n5 W. E" Q  w1 k+ w00:59:35.000                             : en:11  a+ Z" x6 r+ J! z* r9 {% H! i5 q/ B+ B
01:08:22.000                             : en:12
7 F0 e" B5 H8 L9 H01:14:09.000                             : en:13
- |) p5 o1 u) L' m. Y% h4 s01:20:19.000                             : en:14. B9 `6 c0 R7 r6 V( W' d4 E
01:24:31.000                             : en:15
( j/ w8 r, q/ J/ P" k' e01:30:20.000                             : en:168 D, _! Q( |! Z
01:36:53.000                             : en:17
$ f  ~+ c) E0 }5 p; J' x, k1 a9 ?& _3 M01:43:04.000                             : en:18# |6 X  h9 _7 G; Q4 A+ x
01:48:24.000                             : en:19# A" e9 I" N# w0 N
01:52:48.000                             : en:20
* [7 y# p) s" F1 g  r2 x

, E0 I" a. S9 `. Z: ?5 n4 S0 g! p% Y 神奇隊長. MKV.torrent (70.13 KB, 下載次數: 8358)

尚未簽到

發表於 2016-10-12 18:59:49 | 顯示全部樓層
VIP精品區,資源無限好賺金任務區,輕松賺金幣
加入VIP,享受高級特權宣傳賺金又升級,超級棒
精妙絕倫的精品,感謝啊!期待你更多更好的創作哦!

尚未簽到

發表於 2016-10-13 06:15:20 | 顯示全部樓層
偶像^^小生一直都在關注你的原創!小生對你之仰慕如滔滔江水連綿不絕!

尚未簽到

發表於 2016-10-13 12:49:08 | 顯示全部樓層
精妙絕倫的精品,感謝啊!期待你更多更好的創作哦!

尚未簽到

發表於 2016-10-14 01:03:40 來自手機 | 顯示全部樓層
偶像^^小生一直都在關注你的原創!小生對你之仰慕如滔滔江水連綿不絕!

尚未簽到

發表於 2016-10-14 14:24:59 | 顯示全部樓層
精妙絕倫的精品,感謝啊!期待你更多更好的創作哦!

尚未簽到

發表於 2016-10-14 16:18:19 | 顯示全部樓層
偶像^^小生一直都在關注你的原創!小生對你之仰慕如滔滔江水連綿不絕!

尚未簽到

發表於 2016-10-14 19:15:03 | 顯示全部樓層
精妙絕倫的精品,感謝啊!期待你更多更好的創作哦!

尚未簽到

發表於 2016-10-14 23:25:21 | 顯示全部樓層
偶像^^小生一直都在關注你的原創!小生對你之仰慕如滔滔江水連綿不絕!
累計簽到︰1 天
連續簽到︰1 天
發表於 2016-10-15 09:03:03 | 顯示全部樓層
精妙絕倫的精品,感謝啊!期待你更多更好的創作哦!

回復樓主 親!! 現在是後半夜!妳失眠啦?餓啦?通宵加班?還是想WK啦?

 分享同時學會感恩,一句感謝的話語,就是最大的支持!  歡迎交流討論
您需要登錄後才可以回帖 登錄 | 立即注册

本版積分規則

c重要聲明:本論壇是以即時上載言論的方式運作,WK論壇對所有言論的真實性、立場及版權等,不負任何法律責任。而一切言論只代表發佈者個人意見,並非本網站之立場,讀者及用戶務必自行判斷內容之真實性。 由於本論壇受到「即時上載言論」運作方式所規限,故不能完全監察所有言論,若讀者及用戶發現有內容出現「真實性、立場及版權」等問題,請聯絡我們:[email protected]論壇有權刪除任何言論(刪除前或不會作事先警告及通知)| SiteMap[網站地圖]

發表新帖 返回頂部